[专辑]温岚 - 温式效应

  |   4 |   Music |   无损 专辑

专辑介绍

夏天到来了,雨却还在一直下,但是出生在海滨城市的我,每当走过海边,一阵阵凉爽的海风扑面而来,感觉好极了,夏天の风是美好的,希望大家有时间来广东汕头做客,温岚的这张"温式效应"送给大家---Jack.Chen点击更多资源
久违两年,温岚回来了。
消失的两年,温岚努力让自己达到完美状态,而唱片公司也出动了近乎苛求的制作团队,挑出了十首完全好歌让温岚一次呈现,力求让两年的等待变得值得。首播主打《祝我生日快乐》原是周杰伦为松下手机做广告时,嘴中哼唱的一段旋律。这次由温岚完整呈现,别有一番风味。

专辑制作人由与温岚一直合作的迈克林以及首次合作的王治平共同担任,整张专辑以中快板歌曲为主,慵懒的、个性的、阳光的等各种温岚,在聆听上享受着不同的情绪抒发,抒情情歌除了杰伦式情歌外,还有韩剧式的情歌,十首歌可以让人听到不同以往的温岚。

此次发片,温岚更是首都挑战剧情式音乐录影带,甚至献出了自己的荧幕初吻。

情歌的冷凝低压 急转舞曲的焚身热放 十首变幻莫测的音乐辐射你的视听感应 抵御不了的——温室效应不用等到明天过后,今天开始《温室效应》引你进入声,力,奇,境。

专辑曲目

  1. 人来疯
  2. 海滩
  3. 祝我生日快乐
  4. 爱你的两个我
  5. 主动
  6. Boogie Woogie
  7. 夏天の风
  8. 爱到底
  9. 慵懒
  10. 爱情来了

资源

cue

PERFORMER "温岚"
TITLE "温式效应"
FILE "温岚.-.[温式效应].专辑.ape" WAVE
TRACK 01 AUDIO
TITLE "人来疯"
ISRC TWC230407402
INDEX 01 00:00:00
TRACK 02 AUDIO
TITLE "海滩"
ISRC TWC230407403
INDEX 00 03:15:73
INDEX 01 03:16:55
TRACK 03 AUDIO
TITLE "祝我生日快乐"
ISRC TWC230407401
INDEX 00 07:25:45
INDEX 01 07:26:66
TRACK 04 AUDIO
TITLE "爱你的两个我"
ISRC TWC230407404
INDEX 00 11:44:23
INDEX 01 11:45:34
TRACK 05 AUDIO
TITLE "主动"
ISRC TWC230407405
INDEX 00 16:01:32
INDEX 01 16:02:45
TRACK 06 AUDIO
TITLE "Boogie Woogie"
ISRC TWC230407406
INDEX 00 19:44:12
INDEX 01 19:44:73
TRACK 07 AUDIO
TITLE "夏天の风"
ISRC TWC230407407
INDEX 00 23:30:03
INDEX 01 23:31:70
TRACK 08 AUDIO
TITLE "爱到底"
ISRC TWC230407408
INDEX 00 27:31:23
INDEX 01 27:32:44
TRACK 09 AUDIO
TITLE "慵懒"
ISRC TWC230407409
INDEX 00 31:17:02
INDEX 01 31:18:70
TRACK 10 AUDIO
TITLE "爱情来了"
ISRC TWC230407410
INDEX 00 35:19:07
INDEX 01 35:20:29 

ed2k://|file|温岚.-.[温式效应].专辑.ape|282359970|d8943d707dceaa7b0468dc6d1de1cfff|h=QNAJBCPPQ4O4VR4QSQWZRN2Z4A3OVJID|/

网盘分流

Comments
Write a Comment